#TITLE:Run the show;
#SUBTITLE:;
#ARTIST:Kat Deluna ft. Busta Rhymes;
#TITLETRANSLIT:;
#SUBTITLETRANSLIT:;
#ARTISTTRANSLIT:;
#CREDIT:Tony;
#BANNER:;
#BACKGROUND:;
#LYRICSPATH:;
#CDTITLE:cdtitle.png;
#MUSIC:Run the show - Kat Deluna ft. Busta Rhymes.mp3;
#OFFSET:0.000;
#SAMPLESTART:54.410;
#SAMPLELENGTH:20.000;
#SELECTABLE:YES;
#BPMS:0.000=105.100,79.500=104.000,84.000=105.100,143.000=210.200,143.688=52.550,144.000=105.100,158.500=52.550,158.688=210.200,159.000=105.100,174.500=52.550,175.000=105.100,191.000=210.200,192.000=104.000,204.000=105.100,239.438=-2.020,239.625=106.000;
#STOPS:;
#BGCHANGES:;
// cache tags:
#FIRSTBEAT:0.000;
#LASTBEAT:249.500;
#SONGFILENAME:Songs/Music V.I.P ^_^/Run the show/Run the show - Kat Deluna ft. Busta Rhymes.sm;
#HASMUSIC:1;
#HASBANNER:0;
#MUSICLENGTH:138.404;
// end cache tags

//---------------dance-single - Blank----------------
#NOTES:
     dance-single:
     Blank:
     Hard:
     12:
     0.941,1.000,1.000,0.007,0.408,588.000,285.000,1.000,3.000,42.000:
1000
0000
1000
0100
0010
0000
0100
0010
0001
0000
0010
0001
1000
0000
1000
0000
,
0101
0000
0001
0010
0100
0000
0010
0100
1000
0000
0100
1000
0110
0010
0101
0000
,
1110
0000
0010
0100
1011
0000
0100
1000
0111
0000
0001
0010
1101
0000
0101
0000
,
1011
0000
0010
1000
0111
0000
0100
0010
1101
0000
0100
0001
1110
0000
1001
0000
,
1010
0000
0010
0000
1001
0000
0010
0000
1010
0000
1000
0010
0001
0000
0101
0000
,
1010
0000
0100
0000
0101
0000
0100
0000
1001
0000
1000
0010
0001
0000
0100
0000
,
0110
0000
0001
0000
1010
0000
0100
0000
1100
0000
0100
0010
1000
0000
0001
0000
,
1010
0000
0100
0000
0101
0000
0010
0000
1010
0000
0100
1000
0101
0000
0010
0000
,
1110
0000
0010
0000
1100
0000
0010
0000
0101
0000
0001
0100
0011
0000
1000
0000
,
0110
0000
1000
0000
1100
0000
0001
0000
1010
0000
0100
0010
1100
0000
0001
0000
,
0110
0000
1000
0000
0101
0000
0010
0000
1001
0000
0001
0010
1001
0000
0010
0000
,
1100
0000
1000
0000
0101
0000
0010
0000
0110
0000
0010
0100
1001
0000
1000
0000
,
0110
0000
0001
0010
0101
0000
0010
0000
0101
0000
0010
0000
1001
0000
1010
0000
,
0101
0000
0100
0010
1100
0000
0100
0000
1010
0000
0100
0000
1010
0000
0001
0000
,
0011
0000
0001
0001
1010
0000
1100
0010
1001
0000
0010
0000
1100
0000
0110
0000
,
0101
0000
1000
0001
0110
0000
1010
0100
0011
0000
1000
0000
0101
0000
0010
0000
,
0111
0000
0100
0010
1010
0000
1000
0100
1001
0000
0010
0000
1001
0000
0101
0000
,
0011
0000
0101
0010
1001
0000
1001
0010
1100
0000
0010
0000
0101
0000
1000
0000
,
0011
0000
1010
0100
0011
0000
0010
0100
1010
0000
0001
0000
0011
0000
0110
0000
,
1100
0000
0010
0100
1001
0000
0010
0000
1100
0000
1000
1000
1100
0000
0010
0000
,
1101
0010
1010
0001
0110
0100
0100
0100
,
1001
0010
0101
0010
1100
0100
1010
0001
,
1100
1000
1100
0100
0101
0010
0011
0100
,
1110
0000
0010
0000
1010
0000
1000
0000
0111
0000
0001
0000
0101
0000
0001
0010
,
1101
0010
1100
0010
0101
0010
1010
1000
,
1100
0010
0101
0010
1100
0010
0011
0010
,
1010
0001
1010
1000
1100
0001
0110
0100
,
1010
0100
0101
0010
0110
1000
1100
0001
,
0101
0010
1100
1000
1001
0010
1001
0100
,
1100
0010
0011
0100
0110
1000
1001
0010
,
0110
0001
0011
0001
1010
0100
1100
0100
,
0101
1000
0101
0010
1010
0100
0101
0010
,
0111
0000
1100
0010
0001
0010
0100
0001
1010
0100
0010
0100
0111
0000
0110
0000
,
1011
0100
0010
0010
1100
0010
0001
0100
1010
0001
0010
1000
0110
1000
0001
0010
,
1010
0100
0010
1000
1100
0010
1001
0100
0011
0110
1000
0010
0101
1000
1010
0100
,
0011
0010
0100
1000
1101
0010
0100
0010
1010
0100
0010
0001
0111
0000
0000
0000
,
1011
0000
0100
0000
1010
0000
1000
0000
1100
0000
0011
0110
1100
0000
0100
0000
,
1010
0000
0010
0000
0110
0000
0001
0000
0101
0000
0110
1001
1010
0000
0100
0000
,
1100
0000
0010
0000
0110
0000
0001
0000
0011
0000
0101
1010
0110
0000
0010
0000
,
1010
0000
0100
0000
0101
0000
0010
0000
1010
0000
0100
0000
0000
0000
0100
0010
,
0101
1010
0101
1010
0101
1010
0101
1010
0101
1010
0101
1010
0000
0000
0010
0001
,
1010
0101
1010
0101
1010
0101
1010
0101
1010
0101
1010
0101
0000
0000
0010
0100
,
1100
0011
1100
0011
1100
0011
1100
0011
1100
0011
1100
0110
0000
0000
0100
0000
,
1010
0000
0100
0000
0011
0000
1010
0001
0100
0000
0001
0000
0001
0010
1110
0100
,
0010
0100
1110
0001
0010
0001
1011
0010
0001
0010
1011
0000
0100
0010
1101
0100
,
1000
0100
1101
1000
0100
1000
1101
0100
1000
0100
1101
0000
0011
0100
1101
0100
,
1001
0010
1011
1001
0100
1001
1011
0101
0011
0001
1011
0000
0100
0000
1020
0000
,
1001
0000
0101
0000
1100
0000
1100
0030
0110
0000
1100
0000
0010
0000
0000
0000
,
0111
0100
1001
0010
1001
0010
1001
0100
,
1100
0010
0101
0010
1100
0010
1001
0010
,
1100
1000
1100
0010
0101
0010
1101
0110
,
1011
0001
1010
0010
0101
0010
0011
1000
,
1101
0010
0101
1000
1100
0001
0101
0010
,
0011
0100
1010
1000
1100
0010
0101
0010
,
1001
0100
1100
0100
0011
0100
1100
0010
,
0101
0010
1100
0101
0010
0011
0010
0001
,
1110
0000
0001
0000
0101
0000
0010
0000
1001
0000
0001
0010
1001
0000
0100
0000
,
1100
0000
0001
0000
0101
0000
0010
0000
1100
0000
0100
0010
1001
0000
0010
0000
,
0101
0000
1000
0000
0101
0000
0100
0000
1010
0000
0100
1000
0101
0000
0010
0000
,
0011
0000
0100
0000
1100
0000
0010
0000
0011
0000
0100
0010
1000
0000
1110
0000
,
0000
0000
0000
0000
,
0000
0000
0000
0000
,
0000
0000
0000
MMM1
0000
0000
0000
0000
;

//---------------dance-single - ----------------
#NOTES:
     dance-single:
     :
     Easy:
     1:
     0.000,0.000,0.000,0.000,0.000,0.000,0.000,0.000,0.000,0.000:
0000
0000
0000
0000
;

//---------------dance-single - Copied from----------------
#NOTES:
     dance-single:
     Copied from:
     Medium:
     1:
     0.000,0.000,0.000,0.000,0.000,0.000,0.000,0.000,0.000,0.000:
0000
0000
0000
0000
;
